<?xml version="1.0" standalone="no"?>
<!DOCTYPE svg PUBLIC "-//W3C//DTD SVG 1.1//EN" "http://www.w3.org/Graphics/SVG/1.1/DTD/svg11.dtd" >
<!--
2013-9-30: Created.
-->
<svg>
<metadata>
Created by iconfont
</metadata>
<defs>

<font id="_wtmicon" horiz-adv-x="1024" >
  <font-face
    font-family="_wtmicon"
    font-weight="500"
    font-stretch="normal"
    units-per-em="1024"
    ascent="896"
    descent="-128"
  />
    <missing-glyph />
    
    <glyph glyph-name="renminbi" unicode="&#58941;" d="M857.599993 883.2C844.799994 896 819.199994 896 806.399994 876.8L512 537.600007 217.600006 876.8C204.800006 896 179.200006 896 166.400007 883.2 147.200007 870.4 147.200007 844.800001 160.000007 832.000001l268.799995-307.199994L230.400005 524.800007C211.200006 518.400007 192.000006 505.600008 192.000006 480.000008s19.2-38.399999 38.399999-38.399999l243.199995 0 0-147.199997L230.400005 294.400012C211.200006 294.400012 192.000006 281.600012 192.000006 256.000012s19.2-38.399999 38.399999-38.399999l243.199995 0 0-307.199994C473.600001-108.799981 492.8-127.99998 512-127.99998s38.399999 19.2 38.399999 38.399999l0 307.199994 243.199995 0c19.2 0 38.399999 19.2 38.399999 38.399999s-19.2 38.399999-38.399999 38.399999L550.399999 294.400012 550.399999 441.600009l243.199995 0c19.2 0 38.399999 19.2 38.399999 38.399999s-19.2 38.399999-38.399999 38.399999L595.199998 518.400007 863.999993 832.000001C876.799993 844.800001 876.799993 870.4 857.599993 883.2z"  horiz-adv-x="1024" />

    
    <glyph glyph-name="wxbzhanghu" unicode="&#58910;" d="M917.901055 748.754425 128.015094 748.754425c-32.090882 0-58.18826-26.075889-58.18826-58.125839l0-567.459103c0-32.04688 26.097378-58.125839 58.18826-58.125839l789.885961 0c32.132838 0 58.168818 26.076912 58.168818 58.125839L976.069873 690.628586C976.068849 722.678536 950.033893 748.754425 917.901055 748.754425M932.999938 123.169483c0-8.243755-6.771217-15.056927-15.099906-15.056927L128.015094 108.112556c-8.3072 0-15.120372 6.813173-15.120372 15.056927L112.894721 690.628586c0 8.243755 6.813173 15.057951 15.120372 15.057951l789.885961 0c8.328689 0 15.099906-6.814196 15.099906-15.057951L933.000961 123.169483zM432.709631 384.945535c31.585369 24.14184 52.405557 61.827137 52.405557 104.474446 0 72.677253-59.092863 131.813095-131.729184 131.813095-72.636321 0-131.729184-59.134819-131.729184-131.813095 0-42.647309 20.797675-80.332606 52.405557-104.474446-70.406536-30.703279-119.846552-100.857059-119.846552-182.535313 0-11.861142 9.610892-21.534456 21.534456-21.534456 11.881608 0 21.534456 9.673313 21.534456 21.534456 0 84.706217 67.818595 153.515373 151.937434 155.701155 1.429559 0 2.734274-0.419556 4.163833-0.419556 1.428535 0 2.734274 0.419556 4.119831 0.419556 84.201727-2.187829 152.000879-70.994937 152.000879-155.701155 0-11.861142 9.631358-21.534456 21.534456-21.534456s21.534456 9.673313 21.534456 21.534456C552.577672 284.088476 503.116167 354.242256 432.709631 384.945535M264.726755 489.418958c0 48.957015 39.745213 88.745207 88.661296 88.745207 48.872081 0 88.660272-39.788192 88.660272-88.745207 0-47.441499-37.600363-85.967954-84.538395-88.23867-1.385557 0.083911-2.691295 0.420579-4.119831 0.420579-1.429559 0-2.735297-0.336668-4.163833-0.420579C302.285163 403.452028 264.726755 441.977459 264.726755 489.418958M846.863139 581.86444 558.886355 581.86444c-11.945053 0-21.534456-9.673313-21.534456-21.533432 0-11.861142 9.589402-21.534456 21.534456-21.534456l287.976784 0c11.904121 0 21.534456 9.673313 21.534456 21.534456C868.397594 572.191126 858.76726 581.86444 846.863139 581.86444M846.863139 449.042365 558.886355 449.042365c-11.945053 0-21.534456-9.589402-21.534456-21.533432 0-11.861142 9.589402-21.534456 21.534456-21.534456l287.976784 0c11.904121 0 21.534456 9.673313 21.534456 21.534456C868.397594 439.452963 858.76726 449.042365 846.863139 449.042365M846.863139 316.221314 601.954243 316.221314c-11.94403 0-21.533432-9.589402-21.533432-21.533432 0-11.861142 9.589402-21.534456 21.533432-21.534456l244.908896 0c11.904121 0 21.534456 9.673313 21.534456 21.534456C868.397594 306.630888 858.76726 316.221314 846.863139 316.221314"  horiz-adv-x="1024" />

    
    <glyph glyph-name="wxbsousuotuiguang" unicode="&#58912;" d="M937.798221 126.144234 714.895525 349.130841c23.821545 45.681412 37.589107 97.495498 37.589107 152.564721 0 182.559872-148.560524 331.078441-331.079464 331.078441-182.623317 0-331.098907-148.517545-331.098907-331.078441 0-182.559872 148.47559-331.078441 331.098907-331.078441 60.575634 0 117.27089 16.647145 166.206416 45.221948L807.552831-4.100132c17.938558-17.939581 41.551348-26.867928 65.12423-26.867928s47.182602 8.928347 65.123206 26.867928c17.396205 17.396205 27.033703 40.550555 27.033703 65.164139C964.831924 85.678614 955.194426 108.83194 937.798221 126.144234M133.027248 501.695562c0 158.989037 129.34795 288.358477 288.378943 288.358477 158.948105 0 288.3595-129.36944 288.3595-288.358477 0-99.206466-50.437739-186.899714-126.950344-238.795665-1.044796-0.416486-1.876744-1.252527-2.877537-1.835811-45.515636-30.03813-99.999528-47.727001-158.530596-47.727001C262.375198 213.337085 133.027248 342.663546 133.027248 501.695562M907.594315 26.103774c-19.273972-19.191084-50.562583-19.191084-69.836555 0L623.6995 240.202966c26.157753 20.274766 49.186236 44.305065 68.292386 71.421656l215.601406-215.683271c9.344832-9.262968 14.518668-21.694091 14.518668-34.877345S916.939147 35.448606 907.594315 26.103774M215.169059 508.20993c0 0 42.156122 211.011878 234.186693 224.946238C449.355753 733.156168 185.944458 764.444778 215.169059 508.20993"  horiz-adv-x="1024" />

    
    <glyph glyph-name="iconfontmingpian" unicode="&#58921;" d="M931.445 768.374l-838.609 0c-50.674 0-91.9-41.229-91.9-91.906l0-584c0-50.678 41.226-91.907 91.9-91.907l33.095 0c3.36-0.169 6.815-0.259 10.374-0.259 3.799 0 7.015 0.103 9.385 0.213 1.664-0.049 3.327-0.082 4.968-0.082 2.75 0 4.885 0.07 6.154 0.127l366.99-0.582c1.12-0.045 3.015-0.102 5.472-0.102 2.944 0 7.157 0.088 12.029 0.43l4.815-0.004c0.373-0.006 0.974-0.013 1.777-0.013 2.182 0 5.54 0.051 9.652 0.271l373.898 0c50.674 0 91.9 41.229 91.9 91.907l0 584C1023.345 727.146 982.119 768.374 931.445 768.374zM555.94 64.561l-14.532 0-1.598-0.161c-0.325-0.033-0.644-0.062-0.963-0.09l-391.474 0.354-1.238 0.007-1.306-0.105c-0.002 0-0.021-0.002-0.053-0.004l-17.026 0c-5.859 0.37-10.296 1.085-13.421 1.81 2.336 32.908 17.356 78.817 53.792 118.562 29.764 32.467 84.165 71.169 174.31 71.169 90.333 0 145.262-38.776 175.434-71.306 36.773-39.646 52.08-85.107 54.612-117.805C568.382 65.952 562.613 65.007 555.94 64.561zM959.345 92.468c0-15.388-12.516-27.907-27.9-27.907l-294.74 0c-0.984 25.378-7.082 52.505-17.818 78.942-12.519 30.827-31.226 60.155-54.098 84.814-38.837 41.871-108.939 91.783-222.357 91.783-113.413 0-183.044-49.986-221.486-91.92-24.704-26.948-43.861-58.662-56.01-91.569l0 539.856c0 15.388 12.516 27.906 27.9 27.906l838.609 0c15.384 0 27.9-12.519 27.9-27.906L959.345 92.468zM344.423 639.883c-83.651 0-151.707-68.053-151.707-151.7 0-83.658 68.055-151.719 151.707-151.719 83.655 0 151.713 68.061 151.713 151.719C496.135 571.83 428.077 639.883 344.423 639.883zM344.423 400.464c-48.361 0-87.707 39.351-87.707 87.719 0 48.358 39.345 87.7 87.707 87.7 48.365 0 87.713-39.342 87.713-87.7C432.135 439.815 392.788 400.464 344.423 400.464zM577.096 640.924l318 0 0-64-318 0 0 64ZM577.096 512.924l318 0 0-64-318 0 0 64ZM577.096 384.924l193 0 0-64-193 0 0 64Z"  horiz-adv-x="1024" />

    
    <glyph glyph-name="iconfontriyongbaihuo" unicode="&#58924;" d="M511.552 320.107 319.429 320.107 319.429 256.167 565.893 256.167 565.893 256.459 574.893 256.459 574.893 512.167 511.552 512.167ZM511.552 720.922c-221.887 0-401.759-179.935-401.759-401.828 0-108.72 43.185-207.356 113.332-279.694l-94.95-94.95 47.156-47.156 98.134 98.134c66.632-49.107 148.969-78.134 238.087-78.134 88.38 0 170.093 28.541 236.429 76.907l100.414-100.414 47.156 47.156-96.991 96.991c70.988 72.468 114.757 171.704 114.757 281.159C913.317 540.986 733.445 720.922 511.552 720.922zM511.552-18.682c-185.689 0-336.221 150.88-336.221 336.984s150.532 336.984 336.221 336.984c185.695 0 336.221-150.88 336.221-336.984S697.247-18.682 511.552-18.682zM233.15 873.037c-49.234 0-98.83-15.707-140.789-48.159-100.651-77.846-119.138-222.546-41.292-323.196l364.489 281.904C370.163 842.279 302.019 873.037 233.15 873.037zM72.587 599.234c-5.595 20.725-7.127 42.552-4.324 64.488 5.633 44.087 28.096 83.341 63.253 110.532 29.422 22.756 64.567 34.784 101.634 34.784 24.927 0 49.936-5.677 72.323-16.418 3.488-1.674 6.9-3.458 10.235-5.351L72.587 599.234zM932.549 822.851c-41.958 32.452-91.555 48.159-140.789 48.159-68.87 0-137.014-30.759-182.408-89.451l364.489-281.904C1051.687 600.306 1033.2 745.006 932.549 822.851zM952.323 597.206l-243.121 188.035c3.335 1.893 6.747 3.677 10.235 5.351 22.387 10.741 47.396 16.418 72.323 16.418 37.067 0 72.211-12.028 101.634-34.784 35.157-27.191 57.621-66.445 63.253-110.532C959.45 639.758 957.919 617.931 952.323 597.206z"  horiz-adv-x="1024" />

    
    <glyph glyph-name="file" unicode="&#59396;" d="M558.908356 813.884794c-10.929934 10.929934-32.500205 19.857257-47.940872 19.857257L173.939541 833.742051c-15.441691 0-28.085662-12.643971-28.085662-28.085662l0-842.570881c0-15.442714 12.643971-28.086685 28.085662-28.086685l674.054863 0c15.442714 0 28.086685 12.643971 28.086685 28.086685L876.081089 468.628446c0 15.441691-8.94165 37.011962-19.85828 47.941895L558.908356 813.884794 558.908356 813.884794zM819.908742-8.827807000000007L202.02418-8.827807000000007 202.02418 777.570727l308.21471 0c2.552126-0.425695 7.379061-2.413979 9.491165-3.935636l296.28603-296.271704c1.506307-2.112104 3.50994-6.939039 3.921309-9.491165l0-476.729705L819.908742-8.827807000000007 819.908742-8.827807000000007zM847.994404 833.742051L679.481456 833.742051c-15.441691 0-19.146059-8.927323-8.229428-19.857257L856.221786 628.914012c10.917654-10.929934 19.859303-7.212262 19.859303 8.228405L876.081089 805.656389C876.081089 821.09808 863.437118 833.742051 847.994404 833.742051L847.994404 833.742051z"  horiz-adv-x="1024" />

    
    <glyph glyph-name="tiaoshi" unicode="&#60257;" d="M544 507.488V800a32 32 0 0 1-64 0v-292.512c-55.104-14.272-96-63.904-96-123.488s40.896-109.216 96-123.488v-291.616c0-18.176 14.336-32.896 32-32.896s32 14.72 32 32.928v291.616c55.104 14.272 96 63.904 96 123.488s-40.896 109.184-96 123.456zM223.136 187.744C223.328 189.184 224 190.496 224 192V800a32 32 0 0 1-64 0v-608c0-1.504 0.672-2.816 0.864-4.256A127.744 127.744 0 0 1 64 64a128 128 0 0 1 256 0 127.744 127.744 0 0 1-96.864 123.744zM192 0a64 64 0 1 0 0.032 128.032A64 64 0 0 0 192 0zM960 704a128 128 0 0 1-256 0 127.744 127.744 0 0 1 96.864-123.744c-0.192-1.44-0.864-2.752-0.864-4.256v-608a32 32 0 0 1 64 0V576c0 1.504-0.672 2.816-0.864 4.256A127.744 127.744 0 0 1 960 704z m-128-64a64 64 0 1 0 0.032 128.032A64 64 0 0 0 832 640z"  horiz-adv-x="1024" />

    
    <glyph glyph-name="guanfangbanben" unicode="&#60259;" d="M782.208 365.28L724.288 448l57.92 82.72a32 32 0 0 1-20.672 49.856l-99.456 17.536-17.536 99.456a32 32 0 0 1-49.856 20.672L512 660.288l-82.72 57.92a32 32 0 0 1-49.856-20.672l-17.536-99.456-99.456-17.504a32 32 0 0 1-20.672-49.856L299.712 448l-57.92-82.72a32 32 0 0 1 20.672-49.856l99.456-17.536 17.536-99.456a32 32 0 0 1 49.856-20.672L512 235.712l82.72-57.92a32 32 0 0 1 49.856 20.672l17.536 99.456 99.456 17.536a31.968 31.968 0 0 1 20.64 49.824z m-123.2 64.352l41.952-59.904-72.032-12.704a32 32 0 0 1-25.952-25.952l-12.704-72.032-59.904 41.952a32 32 0 0 1-36.704 0l-59.904-41.952-12.704 72.032a32 32 0 0 1-25.952 25.952l-72.032 12.704 41.952 59.904a32 32 0 0 1 0 36.704l-41.952 59.904 72.032 12.704a32 32 0 0 1 25.952 25.952l12.704 72.032 59.904-41.952a32 32 0 0 1 36.704 0l59.904 41.952 12.704-72.032a32 32 0 0 1 25.952-25.952l72.032-12.704-41.952-59.904a32 32 0 0 1 0-36.704zM512 861.088c-243.008 0-440-196.992-440-440a438.72 438.72 0 0 1 133.344-315.552 32 32 0 1 1 44.608 45.888 374.752 374.752 0 0 0-113.952 269.664c0 207.648 168.352 376 376 376s376-168.352 376-376c0-99.136-38.496-192.096-106.144-261.824a32 32 0 1 1 45.92-44.576 438.56 438.56 0 0 1 124.224 306.4c0 243.008-196.992 440-440 440zM704 134.912a32 32 0 0 1-32-32v-107.104l-142.24 94.848-0.064 0.032a32 32 0 0 1-11.552 4.736c-2.048 0.416-4.096 0.032-6.144 0.032s-4.096 0.352-6.144-0.032c-4.096-0.8-8-2.4-11.552-4.736l-0.064-0.032L352-4.224V96a32 32 0 0 1-64 0v-160c0-0.992 0.48-1.856 0.576-2.848a32.256 32.256 0 0 1 3.712-12.224c0.48-0.864 0.544-1.856 1.088-2.688 0.576-0.896 1.504-1.344 2.176-2.144a31.36 31.36 0 0 1 21.472-11.488c1.024-0.096 1.92-0.608 2.976-0.608 0.992 0 1.856 0.48 2.848 0.576a32.256 32.256 0 0 1 12.256 3.712c0.864 0.48 1.856 0.544 2.688 1.088L512 25.536l174.24-116.16c14.688-9.792 34.56-5.824 44.384 8.864a31.584 31.584 0 0 1 4.768 21.664c0.096 1.056 0.608 1.952 0.608 3.04v159.968a32 32 0 0 1-32 32z"  horiz-adv-x="1024" />

    
    <glyph glyph-name="quanxianshenpi" unicode="&#60261;" d="M509.088 307.008v23.872c35.936 22.816 70.656 62.88 89.536 112.064 13.408 5.696 23.04 21.824 30.816 50.56 6.016 22.304-3.648 36.992-16.672 45.12C606.368 643.616 543.808 704 448 704c-97.184 0-162.688-62.144-167.744-169.92-11.808-9.568-19.392-24.864-13.472-46.688 8.416-31.136 18.752-48.992 33.056-55.84 20.224-44.192 53.248-80.032 87.072-101.024v-23.52C292.896 297.088 224 264.864 224 226.624c0-46.144 448-46.144 448 0 0 38.24-68.896 70.464-162.912 80.384zM864 128V736a96 96 0 0 1-96 96H160a96 96 0 0 1-96-96v-608a96 96 0 0 1 96-96h608a96 96 0 0 1 96 96zM128 128V736a32 32 0 0 0 32 32h608a32 32 0 0 0 32-32v-608a32 32 0 0 0-32-32H160a32 32 0 0 0-32 32zM944.896 730.144a32 32 0 0 1-32-32v-679.104c0-19.84-16.064-35.904-35.904-35.904h-611.2a32 32 0 0 1 0-64h611.2a99.904 99.904 0 0 1 99.904 99.904V698.144a32 32 0 0 1-32 32z"  horiz-adv-x="1024" />

    
    <glyph glyph-name="yingyongguanli" unicode="&#60263;" d="M384 800H192a96 96 0 0 1-96-96v-192a96 96 0 0 1 96-96h192a96 96 0 0 1 96 96V704a96 96 0 0 1-96 96z m32-288a32 32 0 0 0-32-32H192a32 32 0 0 0-32 32V704a32 32 0 0 0 32 32h192a32 32 0 0 0 32-32v-192zM384 352H192a96 96 0 0 1-96-96v-192a96 96 0 0 1 96-96h192a96 96 0 0 1 96 96v192a96 96 0 0 1-96 96z m32-288a32 32 0 0 0-32-32H192a32 32 0 0 0-32 32v192a32 32 0 0 0 32 32h192a32 32 0 0 0 32-32v-192zM832 352h-192a96 96 0 0 1-96-96v-192a96 96 0 0 1 96-96h192a96 96 0 0 1 96 96v192a96 96 0 0 1-96 96z m32-288a32 32 0 0 0-32-32h-192a32 32 0 0 0-32 32v192a32 32 0 0 0 32 32h192a32 32 0 0 0 32-32v-192zM736 608m-192 0a192 192 0 1 1 384 0 192 192 0 1 1-384 0Z"  horiz-adv-x="1024" />

    
    <glyph glyph-name="zhanghaoquanxianguanli" unicode="&#60264;" d="M832 490.656h-224a32 32 0 0 1 0-64h224a32 32 0 0 1 0 64zM832 330.656h-224a32 32 0 0 1 0-64h224a32 32 0 0 1 0 64zM404.352 260.64v20.864c30.816 19.968 60.544 55.04 76.768 98.048 11.488 4.992 19.744 19.104 26.4 44.256 5.152 19.488-3.104 32.352-14.272 39.488C487.744 555.168 434.144 608 352 608c-83.296 0-139.456-54.368-143.776-148.672-10.112-8.352-16.608-21.76-11.552-40.864 7.2-27.232 16.096-42.88 28.352-48.864 17.312-38.656 45.664-70.016 74.624-88.384v-20.576C219.04 251.968 160 223.744 160 190.272c0-40.384 384-40.384 384 0 0 33.472-59.04 61.696-139.648 70.368zM896 768H128a96 96 0 0 1-96-96v-576a96 96 0 0 1 96-96h768a96 96 0 0 1 96 96V672a96 96 0 0 1-96 96z m32-672a32 32 0 0 0-32-32H128a32 32 0 0 0-32 32V672a32 32 0 0 0 32 32h768a32 32 0 0 0 32-32v-576z"  horiz-adv-x="1024" />

    
    <glyph glyph-name="folder" unicode="&#58960;" d="M510.4 652.8c8-27.2 33.6-44.8 60.8-44.8h259.2c0 35.2-28.8 64-64 64H504l6.4-19.2zM484.8 736h281.6c70.4 0 128-57.6 128-128v-25.6c30.4-24 51.2-60.8 51.2-102.4v-384c0-70.4-57.6-128-128-128H208c-70.4 0-128 57.6-128 128V672c0 70.4 57.6 128 128 128h164.8c46.4 0 89.6-25.6 112-64z m-112 0H208c-35.2 0-64-28.8-64-64v-576c0-35.2 28.8-64 64-64h608c35.2 0 64 28.8 64 64V480c0 35.2-28.8 64-64 64H574.4c-56 0-105.6 36.8-121.6 89.6l-19.2 57.6c-8 27.2-32 44.8-60.8 44.8zM272 192h256c17.6 0 32-14.4 32-32s-14.4-32-32-32H272c-17.6 0-32 14.4-32 32s14.4 32 32 32z"  horiz-adv-x="1024" />

    
    <glyph glyph-name="icon_shezhi" unicode="&#60301;" d="M482.88 784l-17.28-90.688-20.64-4.512a309.696 309.696 0 0 1-99.776-41.088l-18.688-11.84-73.28 55.04-44.64-44.64 51.904-76.416-11.392-17.76a310.016 310.016 0 0 1-41.568-99.584l-4.8-21.6-90.72-12.896v-63.104l90.688-17.312 4.512-20.64a309.984 309.984 0 0 1 41.088-99.776l11.84-18.688-55.04-73.28 44.64-44.64 76.416 51.904 17.76-11.392a310.016 310.016 0 0 1 99.584-41.568l21.6-4.8 12.896-90.72h63.104l17.312 90.688 20.64 4.512a309.984 309.984 0 0 1 99.776 41.088l18.688 11.84 73.28-55.04 44.64 44.64-51.904 76.416 11.392 17.76a310.016 310.016 0 0 1 41.568 99.584l4.8 21.6 90.72 12.896V413.12l-90.688 17.312-4.512 20.64a309.984 309.984 0 0 1-41.088 99.776l-11.84 18.688 55.04 73.28-44.64 44.64-76.416-51.904-17.76 11.392a310.144 310.144 0 0 1-99.584 41.568l-21.6 4.8-12.896 90.72H482.88zM410.56 746.144l19.424 101.856h171.584l14.624-102.624c28-8.064 54.848-19.328 80.128-33.568l85.792 58.304 121.344-121.344-62.272-82.88c14.08-25.408 25.152-52.352 32.96-80.416l101.888-19.424v-171.584l-102.624-14.624a373.92 373.92 0 0 0-33.568-80.128l58.304-85.792-121.344-121.344-82.88 62.272c-25.408-14.08-52.352-25.152-80.416-32.96l-19.424-101.888h-171.584l-14.624 102.624a373.92 373.92 0 0 0-80.128 33.568L241.92-2.112l-121.344 121.344 62.272 82.88a373.824 373.824 0 0 0-32.96 80.416L48 301.952v171.584l102.624 14.624c8.064 27.968 19.328 54.848 33.568 80.128L125.888 654.08l121.344 121.344 82.88-62.272a373.856 373.856 0 0 0 80.416 32.96zM512 192a192 192 0 1 0 0 384 192 192 0 0 0 0-384z m0 64a128 128 0 1 1 0 256 128 128 0 0 1 0-256z"  horiz-adv-x="1024" />

    
    <glyph glyph-name="tubiao-bingtu" unicode="&#60309;" d="M896 416c-1.344 0-2.464-0.608-3.744-0.768-1.28 0.16-2.432 0.768-3.744 0.768H544V764c0 0.704-0.352 1.312-0.416 2.016 0.064 0.672 0.416 1.28 0.416 1.984a32 32 0 0 1-32 32C282.624 800 96 613.376 96 384s186.624-416 416-416 416 186.624 416 416a32 32 0 0 1-32 32zM512 32C317.92 32 160 189.92 160 384 160 567.296 300.864 718.144 480 734.368V384a32 32 0 0 1 32-32h350.368C846.144 172.864 695.296 32 512 32zM625.664 717.28a355.36 355.36 0 0 0 216.832-211.84 32 32 0 1 1 60.064 22.048 414.24 414.24 0 0 1-256.224 250.336 31.968 31.968 0 1 1-20.672-60.544z"  horiz-adv-x="1024" />

    
    <glyph glyph-name="tubiao-qiapian" unicode="&#60310;" d="M928 736H96a32 32 0 0 1-32-32v-672a32 32 0 0 1 32-32h832a32 32 0 0 1 32 32V704a32 32 0 0 1-32 32z m-32-672H128V672h768v-608zM230.592 447.904H544a32 32 0 1 1 0 64H230.592a32 32 0 0 1 0-64zM230.592 255.904H544a32 32 0 1 1 0 64H230.592a32 32 0 1 1 0-64zM768 192a32 32 0 0 1 32 32V545.984a32 32 0 1 1-64 0V224a32 32 0 0 1 32-32z"  horiz-adv-x="1024" />

    
    <glyph glyph-name="tubiao-zhexiantu" unicode="&#60311;" d="M896 0H96a32 32 0 0 0-32 32V672a32 32 0 0 0 64 0v-608h768a32 32 0 1 0 0-64zM247.008 256a32 32 0 0 0-20.992 56.192l200.992 174.24a32 32 0 0 0 42.272-0.288l172.128-153.44 229.088 246.304a32 32 0 0 0 46.88-43.616l-250.432-269.216a31.936 31.936 0 0 0-44.704-2.08l-174.56 155.52-179.744-155.84a31.872 31.872 0 0 0-20.928-7.776z"  horiz-adv-x="1024" />

    
    <glyph glyph-name="zuzhiqunzu" unicode="&#60376;" d="M960 192h-63.616v167.392a32 32 0 0 1-32 32H544V480h160a32 32 0 0 1 32 32V800a32 32 0 0 1-32 32H320a32 32 0 0 1-32-32v-288a32 32 0 0 1 32-32h160v-88.608H161.984a32 32 0 0 1-32-31.968L129.792 192H64a32 32 0 0 1-32-32v-192a32 32 0 0 1 32-32h192a32 32 0 0 1 32 32v192a32 32 0 0 1-32 32H193.792l0.16 135.392H480V192h-64a32 32 0 0 1-32-32v-192a32 32 0 0 1 32-32h192a32 32 0 0 1 32 32v192a32 32 0 0 1-32 32h-64v135.392h288.384V192H768a32 32 0 0 1-32-32v-192a32 32 0 0 1 32-32h192a32 32 0 0 1 32 32v192a32 32 0 0 1-32 32zM352 768h320v-224H352V768zM224 0H96v128h128v-128z m352 0h-128v128h128v-128z m352 0h-128v128h128v-128z"  horiz-adv-x="1024" />

    
    <glyph glyph-name="yingwen" unicode="&#60384;" d="M229.248 192V558.496h271.744v-61.984h-197.76v-81.28h184v-61.76h-184v-99.712h204.768V192h-278.72z m550.496 0h-70.24v135.488c0 28.672-1.504 47.232-4.48 55.648a39.04 39.04 0 0 1-14.656 19.616 41.792 41.792 0 0 1-24.384 7.008c-12.16 0-23.04-3.328-32.736-10.016-9.664-6.656-16.32-15.488-19.872-26.496-3.584-11.008-5.376-31.36-5.376-60.992V192h-70.24v265.504h65.248v-39.008c23.168 30.016 52.32 44.992 87.488 44.992 15.52 0 29.664-2.784 42.496-8.352 12.832-5.6 22.56-12.704 29.12-21.376 6.592-8.672 11.2-18.496 13.76-29.504 2.56-11.008 3.872-26.752 3.872-47.264V192zM160 752a32 32 0 0 1-32-32V32a32 32 0 0 1 32-32h688a32 32 0 0 1 32 32V720a32 32 0 0 1-32 32H160z m0 64h688a96 96 0 0 0 96-96V32a96 96 0 0 0-96-96H160a96 96 0 0 0-96 96V720a96 96 0 0 0 96 96z"  horiz-adv-x="1024" />

    
    <glyph glyph-name="zhongwen" unicode="&#60386;" d="M160 752a32 32 0 0 1-32-32V32a32 32 0 0 1 32-32h688a32 32 0 0 1 32 32V720a32 32 0 0 1-32 32H160z m0 64h688a96 96 0 0 0 96-96V32a96 96 0 0 0-96-96H160a96 96 0 0 0-96 96V720a96 96 0 0 0 96 96zM482.176 633.728h59.616v-94.4h196v-239.072h-196v-184.416h-59.616v184.416H286.72v239.04h195.456V633.76z m-137.504-277.152h137.504v126.4H344.64v-126.4z m197.12 0h138.048v126.4H541.76v-126.4z"  horiz-adv-x="1024" />

    
    <glyph glyph-name="-lumingpai" unicode="&#60411;" d="M608 480h205.312L960 608l-146.688 128H608V864h-192v-128H96v-256h320v-64H210.688L64 288l146.688-128H416v-256h192v256h320v256H608v64zM480 800h64v-64h-64V800zM160 544V672h629.344l73.344-64-73.344-64H160z m320-64h64v-64h-64v64z m64-512h-64v192h64v-192z m320 384v-128H234.656l-73.344 64 73.344 64H864z"  horiz-adv-x="1024" />

    
    <glyph glyph-name="fabu" unicode="&#60425;" d="M864 768h-56.64a32 32 0 0 1 0-64H864a32 32 0 0 0 32-32v-640a32 32 0 0 0-32-32H160a32 32 0 0 0-32 32V672a32 32 0 0 0 32 32h62.272a32 32 0 0 1 0 64H160a96 96 0 0 1-96-96v-640a96 96 0 0 1 96-96h704a96 96 0 0 1 96 96V672a96 96 0 0 1-96 96zM341.216 587.68L480 710.688V208a32 32 0 0 1 64 0V710.688l138.784-123.008a32.032 32.032 0 0 1 42.464 47.904l-192 170.208a32 32 0 0 1-42.464 0l-192-170.208a32 32 0 1 1 42.432-47.904z"  horiz-adv-x="1024" />

    
    <glyph glyph-name="xiayibu" unicode="&#60426;" d="M860.992 337.088C627.904 578.464 352.384 612.352 44.8 436.704a38.4 38.4 0 1 1 38.08-66.688c278.432 159.008 516.896 129.408 726.08-89.696L640 96h352V480l-131.008-142.912z"  horiz-adv-x="1024" />

    
    <glyph glyph-name="shangyibu" unicode="&#60427;" d="M995.648 436.704C684.448 614.432 406.08 577.344 171.232 328.096L32 480v-384h352l-160.736 175.328c211.168 227.072 452.192 259.776 734.304 98.688a38.4 38.4 0 0 1 38.08 66.688z"  horiz-adv-x="1024" />

    
    <glyph glyph-name="xiangxiazhanhang" unicode="&#60428;" d="M493.504 337.856a31.904 31.904 0 0 1 45.28 0l308.352 308.352a31.968 31.968 0 1 1-45.248 45.248l-285.728-285.728-294.176 294.144a31.968 31.968 0 1 1-45.248-45.248l316.768-316.768zM801.888 435.424l-285.728-285.728-294.144 294.144a31.968 31.968 0 1 1-45.248-45.248l316.768-316.768a31.904 31.904 0 0 1 45.28 0l308.352 308.352a32 32 0 1 1-45.28 45.248z"  horiz-adv-x="1024" />

    
    <glyph glyph-name="xiangshangzhanhang" unicode="&#60429;" d="M199.36 323.232a31.904 31.904 0 0 1 22.624 9.376l294.144 294.144 285.728-285.728a31.968 31.968 0 1 1 45.248 45.248l-308.352 308.352a32 32 0 0 1-45.28 0l-316.768-316.768a31.968 31.968 0 0 1 22.656-54.624zM538.784 438.624a32 32 0 0 1-45.28 0l-316.768-316.768a31.968 31.968 0 1 1 45.248-45.248l294.144 294.144 285.728-285.728a31.968 31.968 0 1 1 45.248 45.248l-308.32 308.352z"  horiz-adv-x="1024" />

    
    <glyph glyph-name="tupianjiazaishibai" unicode="&#60430;" d="M776 568m-72 0a72 72 0 1 1 144 0 72 72 0 1 1-144 0ZM999.904 779.392a32 32 0 0 1-21.952 10.912l-456.192 31.904a31.552 31.552 0 0 1-27.2-11.904l-92.192-114.848a32 32 0 0 1 0.672-40.896l146.144-169.952-147.456-194.656 36.48 173.376a32 32 0 0 1-11.136 31.424L235.616 650.496l79.616 125.696a32 32 0 0 1-29.28 49.024l-240.192-16.768a32 32 0 0 1-29.696-34.176l55.808-798.016a32.064 32.064 0 0 1 34.304-29.696l176.512 13.184c17.632 1.312 30.848 16.672 29.504 34.272s-16.576 31.04-34.304 29.536l-144.448-10.784-6.432 92.512 125.312 12.576a32 32 0 0 1 28.672 35.04 32.16 32.16 0 0 1-35.04 28.672l-123.392-12.416L82.144 746.816l145.152 10.144-60.96-96.224a32 32 0 0 1 6.848-41.952l198.4-161.344-58.752-279.296a30.912 30.912 0 0 1 0.736-14.752 31.68 31.68 0 0 1 1.408-11.04l51.52-154.56a31.968 31.968 0 0 1 27.456-21.76l523.104-47.552a32.064 32.064 0 0 1 34.848 29.632L1007.68 756.16a32.064 32.064 0 0 1-7.776 23.232z m-98.912-630.848l-412.576 39.648a31.52 31.52 0 0 1-34.912-28.768 32 32 0 0 1 28.8-34.912l414.24-39.808-6.272-89.536-469.728 42.72-39.584 118.72 234.816 310.016a31.936 31.936 0 0 1-1.248 40.192L468.896 676.16l65.088 81.056 407.584-28.48-40.576-580.192z"  horiz-adv-x="1024" />

    
    <glyph glyph-name="huanyuanhuabu" unicode="&#60435;" d="M912 848h-800c-35.296 0-64-28.704-64-64v-800c0-35.296 28.704-64 64-64h800c35.296 0 64 28.704 64 64v800c0 35.296-28.704 64-64 64z m-800-864v800h800l0.064-800H112zM368.896 704a32 32 0 0 1-32-32v-105.888H224a32 32 0 0 1 0-64h144.896a32 32 0 0 1 32 32V672a32 32 0 0 1-32 32zM784.864 566.112H672V672a32 32 0 1 1-64 0v-137.888a32 32 0 0 1 32-32h144.864a32 32 0 1 1 0 64zM368.896 256H224a32 32 0 1 1 0-64h112.896v-105.92a32 32 0 1 1 64 0V224a32 32 0 0 1-32 32zM784.864 256H640a32 32 0 0 1-32-32v-137.92a32 32 0 1 1 64 0V192h112.864a32 32 0 1 1 0 64z"  horiz-adv-x="1024" />

    
    <glyph glyph-name="quanping" unicode="&#60436;" d="M368.896 704H224a32 32 0 0 1-32-32v-137.888a32 32 0 0 1 64 0V640h112.896a32 32 0 0 1 0 64zM784.864 704H640a32 32 0 1 1 0-64h112.864v-105.888a32 32 0 1 1 64 0V672a32 32 0 0 1-32 32zM368.896 118.08H256V224a32 32 0 1 1-64 0v-137.92a32 32 0 0 1 32-32h144.896a32 32 0 1 1 0 64zM784.864 256a32 32 0 0 1-32-32v-105.92H640a32 32 0 1 1 0-64h144.864a32 32 0 0 1 32 32V224a32 32 0 0 1-32 32zM912 848h-800c-35.296 0-64-28.704-64-64v-800c0-35.296 28.704-64 64-64h800c35.296 0 64 28.704 64 64v800c0 35.296-28.704 64-64 64z m-800-864v800h800l0.064-800H112z"  horiz-adv-x="1024" />

    
    <glyph glyph-name="DOC" unicode="&#60439;" d="M927.68 197.088c0 0.576 0.32 1.056 0.32 1.664V763.072C928 818.72 883.552 864 828.928 864H195.04C140.448 864 96 818.72 96 763.072v-758.144C96-50.72 140.448-96 195.04-96h480.032a31.872 31.872 0 0 1 20.96 7.84l153.856 133.632a32 32 0 1 1-41.92 48.32L704 3.488v119.552c0 20.384 15.712 36.96 35.072 36.96h157.632a32 32 0 0 1 32 32c-0.032 1.792-0.768 3.36-1.024 5.088zM640 123.072V-32H195.04C175.712-32 160-15.424 160 4.928V763.072C160 783.424 175.712 800 195.04 800h633.888C848.288 800 864 783.424 864 763.072V224h-124.928C684.448 224 640 178.72 640 123.072zM731.36 608h-5.216c-9.536 0-17.504-4.192-23.84-12.576-22.56-40.768-50.464-95.296-83.712-163.52l-70.272 141.376C539.968 596.448 528.384 608 513.632 608h-7.808c-10.112 0-18.656-5.056-25.6-15.168-36.736-69.408-64.032-123.04-81.984-160.928l-70.272 141.376C319.904 596.448 308.32 608 293.312 608h-6.944l-6.528-1.728c-15.872-8.096-23.84-17.632-23.84-28.64v-7.808l0.864-5.216c43.68-92.256 77.792-162.208 102.368-209.92 9.824-23.136 21.408-34.688 34.688-34.688h6.08c8.96 0 17.344 4.192 25.152 12.576l83.264 164.384h0.864c30.368-63.904 51.776-107.712 64.192-131.424 12.736-30.368 26.336-45.536 40.8-45.536h6.08c9.824 0 18.784 5.056 26.88 15.168l116.256 231.168v10.432l-0.864 3.456c-9.856 18.528-20.256 27.776-31.264 27.776z"  horiz-adv-x="1024" />

    
    <glyph glyph-name="BMP" unicode="&#60440;" d="M287.392 554.368H245.632v-32.608H281.28c13.344 2.048 20.032 8.256 20.032 18.656-2.72 9.312-7.36 13.952-13.92 13.952zM287.392 468.16H244.96v-31.904H286.72c9.728 3.392 14.592 8.48 14.592 15.264v2.72c-2.272 9.28-6.912 13.92-13.92 13.92zM795.008 554.368l-13.92 0.672h-17.312v-52.256h29.184c9.728 0 17.184 6.784 22.4 20.352v8.48c0 9.728-6.784 17.312-20.352 22.752zM928 256h32V736h-32v27.072C928 818.72 883.552 864 828.928 864H195.04C140.448 864 96 818.72 96 763.072V736H64v-480h32v-251.072C96-50.72 140.448-96 195.04-96h480.032a31.872 31.872 0 0 1 20.96 7.84l153.856 133.632a32 32 0 1 1-41.92 48.32L704 3.488v119.552c0 20.384 15.712 36.96 35.072 36.96h157.632a32 32 0 0 1 32 32c0 1.792-0.736 3.36-1.024 5.088 0 0.576 0.32 1.056 0.32 1.664V256zM160 763.072C160 783.424 175.712 800 195.04 800h633.888C848.288 800 864 783.424 864 763.072V736H160v27.072z m382.048-292.864l-7.808-1.344h-4.064c-8.832 0-20.128 8.16-33.952 24.448l-23.072 22.752v-1.344l-0.672-111.008c-5.44-14.016-13.12-21.024-23.072-21.024h-6.784c-9.952 0-17.664 7.008-23.072 21.024V584.928c0 9.728 6.784 17.408 20.352 23.072h9.504c7.456 0 19.808-9.728 36.992-29.184l45.824-45.152c47.072 47.296 71.392 70.944 72.992 70.944A21.664 21.664 0 0 0 615.008 608h6.784c9.728 0 17.44-6.784 23.072-20.352v-181.92c0-9.952-7.136-17.664-21.376-23.072h-8.48c-6.784 0-13.472 4.416-20.032 13.248-2.496 3.84-3.744 10.752-3.744 20.704v99.456c-30.304-30.592-46.688-45.856-49.184-45.856z m-187.808-15.296v-4.768c0-26.688-14.368-47.392-43.104-62.112-7.936-3.616-21.376-5.408-40.384-5.408h-55.68c-9.952 0-17.664 7.008-23.072 21.024V583.552c0 7.936 6.784 15.616 20.352 23.072L217.792 608h68.896c27.392 0 48.416-14.592 63.136-43.776 2.944-9.28 4.416-17.888 4.416-25.792 0-14.72-4.864-28.864-14.592-42.432v-1.344c9.728-11.552 14.592-24.8 14.592-39.744zM864 224h-124.928C684.448 224 640 178.72 640 123.072V-32H195.04C175.712-32 160-15.424 160 4.928V256h704v-32z m5.344 300.512c0-23.52-12-44.576-35.968-63.136-14.72-8.352-27.936-12.544-39.712-12.544h-29.856v-27.84c0-17.888-3.04-28.288-9.152-31.232 0-2.272-4.864-4.64-14.592-7.136h-6.784c-9.952 0-17.664 7.008-23.072 21.024V584.928c0 9.952 7.008 17.664 21.056 23.072h62.464c23.296 0 44.224-11.872 62.784-35.648 8.608-14.688 12.896-28.064 12.896-40.032v-7.808z"  horiz-adv-x="1024" />

    
    <glyph glyph-name="GIF" unicode="&#60441;" d="M928 256h32V736h-32v27.072C928 818.72 883.552 864 828.928 864H195.04C140.448 864 96 818.72 96 763.072V736H64v-480h32v-251.072C96-50.72 140.448-96 195.04-96h480.032a31.872 31.872 0 0 1 20.96 7.84l153.856 133.632a32 32 0 1 1-41.92 48.32L704 3.488v119.552c0 20.384 15.712 36.96 35.072 36.96h157.632a32 32 0 0 1 32 32c0 1.792-0.736 3.36-1.024 5.088 0 0.576 0.32 1.056 0.32 1.664V256z m-64-32h-124.928C684.448 224 640 178.72 640 123.072V-32H195.04C175.712-32 160-15.424 160 4.928V256h704v-32zM319.872 429.28c7.968-2.88 15.072-4.32 21.344-4.32h5.792c11.808 0 22.784 3.744 32.928 11.2v14.848H334.72c-10.368 0-18.56 7.584-24.608 22.784v9.024c0 7.488 4.704 14.592 14.112 21.344 4.096 2.912 11.456 4.352 22.08 4.352h54.976c19.04 0 30.88-6.88 35.456-20.608l0.736-5.056v-63.296c0-13.024-16.032-27.488-48.128-43.424-16.416-5.536-29.44-8.32-39.072-8.32h-11.936c-31.104 0-60.064 14.336-86.816 43.04-18.368 24.128-27.52 47.872-27.52 71.264v11.584c0 31.104 14.336 60.032 43.04 86.816C291.168 598.848 314.912 608 338.304 608h11.936c19.52 0 40.992-7.488 64.384-22.432 15.2-10.624 22.784-20.992 22.784-31.104v-5.056c0-4.576-2.88-10.496-8.672-17.728-7.232-5.056-13.76-7.616-19.552-7.616-8.448 0-17.728 4.96-27.84 14.848-11.104 7.968-22.56 11.936-34.368 11.936h-5.792c-23.872 0-42.432-13.024-55.712-39.072a60.8 60.8 0 0 1-4.352-20.992v-5.792c0.032-23.872 12.928-42.432 38.752-55.712z m185.632-39.072V583.392c0 10.624 7.488 18.816 22.432 24.608h9.408c10.624 0 18.816-7.488 24.608-22.432v-193.184c0-10.624-7.488-18.816-22.432-24.608h-9.408c-10.624 0-18.848 7.488-24.608 22.432z m188.448 115.424v-10.496h73.44c10.624 0 18.944-7.616 24.96-22.784v-9.056c0-7.488-4.832-14.592-14.464-21.344-3.872-2.88-11.104-4.352-21.696-4.352h-62.208v-32.192c0-19.296-5.664-30.88-16.992-34.72 0-1.216-2.784-2.176-8.32-2.912h-7.232c-10.624 0-18.816 7.488-24.608 22.432V583.392c0 10.624 7.488 18.816 22.432 24.608h122.272c10.624 0 18.944-7.488 24.96-22.432v-9.408c0-10.624-7.584-18.816-22.784-24.608h-90.432l0.672-45.92zM864 736H160v27.072C160 783.424 175.712 800 195.04 800h633.888C848.288 800 864 783.424 864 763.072V736z"  horiz-adv-x="1024" />

    
    <glyph glyph-name="JPG" unicode="&#60442;" d="M490.432 548.448l-15.456 0.736h-19.232v-58.048h32.416c10.816 0 19.104 7.552 24.896 22.624v9.408c0 10.816-7.552 19.232-22.624 25.28zM928 256h32V736h-32v27.072C928 818.72 883.552 864 828.928 864H195.04C140.448 864 96 818.72 96 763.072V736H64v-480h32v-251.072C96-50.72 140.448-96 195.04-96h480.032a31.872 31.872 0 0 1 20.96 7.84l153.856 133.632a32 32 0 1 1-41.92 48.32L704 3.488v119.552c0 20.384 15.712 36.96 35.072 36.96h157.632a32 32 0 0 1 32 32c0 1.792-0.736 3.36-1.024 5.088 0 0.576 0.32 1.056 0.32 1.664V256zM160 763.072C160 783.424 175.712 800 195.04 800h633.888C848.288 800 864 783.424 864 763.072V736H160v27.072zM709.472 421.76c8.288-3.008 15.712-4.512 22.24-4.512h6.016c12.32 0 23.744 3.904 34.304 11.68v15.456h-47.136c-10.816 0-19.36 7.904-25.632 23.744v9.408c0 7.776 4.896 15.2 14.688 22.24 4.288 3.008 11.936 4.544 23.008 4.544h57.312c19.872 0 32.16-7.168 36.96-21.504l0.768-5.248v-65.984c0-13.568-16.704-28.64-50.144-45.248-17.088-5.792-30.656-8.672-40.704-8.672h-12.448c-32.416 0-62.592 14.944-90.496 44.864-19.104 25.152-28.64 49.888-28.64 74.272v12.064c0 32.416 14.944 62.592 44.864 90.464C679.552 598.464 704.32 608 728.704 608h12.448c20.352 0 42.72-7.776 67.104-23.36 15.84-11.072 23.744-21.888 23.744-32.448v-5.28c0-4.768-3.008-10.944-9.056-18.464-7.552-5.28-14.336-7.936-20.352-7.936-8.8 0-18.464 5.152-29.024 15.456-11.552 8.288-23.488 12.448-35.808 12.448h-6.016c-24.896 0-44.224-13.568-58.048-40.704a63.04 63.04 0 0 1-4.512-21.856v-6.016c-0.064-24.896 13.408-44.256 40.288-58.08z m-136.48 102.176v-8.672c0-26.144-13.312-49.504-39.968-70.112-16.352-9.312-31.04-13.952-44.096-13.952h-33.184v-30.912c0-19.872-3.392-31.424-10.176-34.688 0-2.496-5.408-5.152-16.224-7.904h-7.552c-11.072 0-19.616 7.776-25.632 23.36V582.368c0 11.072 7.776 19.616 23.36 25.632h69.376c25.888 0 49.12-13.184 69.728-39.584 9.6-16.352 14.368-31.168 14.368-44.48zM324.32 584.64v-128.192c0-32.16-15.968-59.936-47.872-83.328-17.856-10.304-34.688-15.456-50.528-15.456h-8.288c-11.072 0-19.616 7.776-25.632 23.36v9.792c0 9.312 6.4 17.344 19.232 24.128l27.904 5.28c17.088 10.048 25.632 22.368 25.632 36.96v111.968c0 19.84 5.92 31.776 17.728 35.808 0 1.248 2.88 2.272 8.672 3.008h7.552c11.04 0.032 19.584-7.744 25.6-23.328zM640 123.072V-32H195.04C175.712-32 160-15.424 160 4.928V256h704v-32h-124.928C684.448 224 640 178.72 640 123.072z"  horiz-adv-x="1024" />

    
    <glyph glyph-name="PNG" unicode="&#60443;" d="M295.456 524.576v8.352c0 9.568-6.688 17.024-20.032 22.368l-13.664 0.672h-17.056v-51.392h28.704c9.568 0 16.928 6.656 22.048 20zM928 256h32V736h-32v27.072C928 818.72 883.552 864 828.928 864H195.04C140.448 864 96 818.72 96 763.072V736H64v-480h32v-251.072C96-50.72 140.448-96 195.04-96h480.032a31.872 31.872 0 0 1 20.96 7.84l153.856 133.632a32 32 0 1 1-41.92 48.32L704 3.488v119.552c0 20.384 15.712 36.96 35.072 36.96h157.632a32 32 0 0 1 32 32c0 1.792-0.736 3.36-1.024 5.088 0 0.576 0.32 1.056 0.32 1.664V256z m-64-32h-124.928C684.448 224 640 178.72 640 123.072V-32H195.04C175.712-32 160-15.424 160 4.928V256h704v-32zM192 407.136V585.312c0 9.792 6.912 17.344 20.672 22.688h61.408c22.912 0 43.488-11.68 61.728-35.04 8.448-14.464 12.672-27.584 12.672-39.36v-7.68c0-23.136-11.776-43.808-35.36-62.048-14.464-8.224-27.488-12.352-39.04-12.352h-29.376v-27.36c0-17.568-3.008-27.808-8.992-30.688 0-2.24-4.768-4.576-14.336-7.008h-6.688c-9.792-0.032-17.344 6.88-22.688 20.672z m188.864 0V585.312c0 9.568 6.688 17.12 20.032 22.688h9.344c7.328 0 19.008-9.12 35.04-27.36l104.448-103.776v97.76c0 17.568 6.24 28.48 18.688 32.704L573.056 608h6.656c9.568 0 17.12-6.912 22.688-20.672v-178.176c0-9.568-6.784-17.12-20.352-22.688h-8.992c-7.552 0-19.232 9.12-35.04 27.36l-104.448 103.776v-94.752c0-16-3.232-26.144-9.664-30.368-5.568-4-10.112-6.016-13.664-6.016h-6.656c-9.824-0.032-17.376 6.88-22.72 20.672z m342.688 36.032c7.328-2.656 13.888-4 19.68-4h5.344c10.912 0 21.024 3.456 30.368 10.336v13.664h-41.696c-9.568 0-17.12 7.008-22.688 21.024v8.352c0 6.912 4.32 13.44 13.024 19.68 3.776 2.656 10.56 4 20.352 4h50.72c17.568 0 28.48-6.336 32.704-19.008l0.64-4.672v-58.4c0-12-14.784-25.344-44.384-40.032-15.136-5.12-27.136-7.68-36.032-7.68h-11.008c-28.704 0-55.392 13.248-80.096 39.712-16.896 22.24-25.344 44.16-25.344 65.728v10.688c0 28.704 13.248 55.392 39.712 80.096 22.24 16.896 44.16 25.344 65.728 25.344h11.008c18.016 0 37.824-6.912 59.392-20.672 14.016-9.792 21.024-19.36 21.024-28.704v-4.672c0-4.224-2.656-9.664-8-16.352-6.656-4.672-12.672-7.008-18.016-7.008-7.776 0-16.352 4.576-25.696 13.664-10.24 7.328-20.8 11.008-31.712 11.008h-5.344c-22.016 0-39.168-12-51.392-36.032a55.936 55.936 0 0 1-4-19.36v-5.344c0-22.016 11.904-39.136 35.712-51.36zM864 736H160v27.072C160 783.424 175.712 800 195.04 800h633.888C848.288 800 864 783.424 864 763.072V736z"  horiz-adv-x="1024" />

    
    <glyph glyph-name="weizhigeshi" unicode="&#60444;" d="M842.4 240.736C827.808 339.424 741.664 416 639.52 416a203.648 203.648 0 0 1-163.424-81.152 197.024 197.024 0 0 1-204.768-196.64c0-108.512 88.288-196.832 197.344-196.832h320.512c94.208 0 170.848 68.864 170.848 153.504-0.032 67.52-48.16 125.664-117.632 145.856z m-53.248-235.392H468.16a132.992 132.992 0 0 0-132.832 132.832 132.96 132.96 0 0 0 152 131.456l20.832-3.04 11.008 17.952A140.32 140.32 0 0 0 639.52 352c76.192 0 139.456-61.952 141.024-138.048l0.576-27.04 26.752-3.968C858.944 175.36 896 138.304 896 94.848c0-49.344-47.936-89.504-106.848-89.504zM253.856-32H195.04C175.712-32 160-15.424 160 4.928V763.072C160 783.424 175.712 800 195.04 800h633.888C848.288 800 864 783.424 864 763.072v-410.944a32 32 0 1 1 64 0V763.072C928 818.72 883.552 864 828.928 864H195.04C140.448 864 96 818.72 96 763.072v-758.144C96-50.72 140.448-96 195.04-96h58.784a32 32 0 0 1 0.032 64zM672 672a32 32 0 0 1-32 32H288a32 32 0 0 1 0-64h352a32 32 0 0 1 32 32zM288 544a32 32 0 0 1 0-64h192a32 32 0 0 1 0 64H288z"  horiz-adv-x="1024" />

    
    <glyph glyph-name="yunduanxiazai" unicode="&#60445;" d="M808.192 649.472a320.16 320.16 0 0 1-592.352 0A238.592 238.592 0 0 1 32 416.064c0-132.352 107.648-240 240-240h91.488a32 32 0 1 1 0 64H272a176.192 176.192 0 0 0-176 176 175.04 175.04 0 0 0 148.48 173.888l19.04 2.976 6.24 18.24C305.248 714.592 402.592 784.064 512 784.064a256 256 0 0 0 242.208-172.896l6.272-18.24 19.04-2.976A175.04 175.04 0 0 0 928 416.064c0-97.024-78.976-176-176-176h-97.28a32 32 0 1 1 0-64h97.28c132.352 0 240 107.648 240 240a238.592 238.592 0 0 1-183.808 233.408zM649.792 106.112L544 19.52V448.064a32 32 0 0 1-64 0V19.52l-106.752 87.424a31.968 31.968 0 1 1-40.544-49.504l159.04-130.24a32 32 0 0 1 40.576 0l158.048 129.44a32 32 0 1 1-40.576 49.472z"  horiz-adv-x="1024" />

    
    <glyph glyph-name="yunduanshangchuan" unicode="&#60446;" d="M808.192 633.408a320.16 320.16 0 0 1-592.352 0A238.592 238.592 0 0 1 32 400C32 267.648 139.648 160 272 160h91.488a32 32 0 1 1 0 64H272A176.192 176.192 0 0 0 96 400a175.04 175.04 0 0 0 148.48 173.888l19.04 2.976 6.24 18.24C305.248 698.528 402.592 768 512 768a256 256 0 0 0 242.208-172.896l6.272-18.24 19.04-2.976A175.04 175.04 0 0 0 928 400c0-97.024-78.976-176-176-176h-97.28a32 32 0 1 1 0-64h97.28c132.352 0 240 107.648 240 240a238.592 238.592 0 0 1-183.808 233.408zM649.792 325.952a32 32 0 1 1 40.544 49.536l-158.048 129.408a32 32 0 0 1-40.576 0l-159.04-130.24a32.032 32.032 0 0 1 20.256-56.768 31.744 31.744 0 0 1 20.256 7.264L480 412.544V-16a32 32 0 0 1 64 0V412.544l105.792-86.592z"  horiz-adv-x="1024" />

    
    <glyph glyph-name="wentijieda" unicode="&#60462;" d="M927.68 197.088c0 0.576 0.32 1.056 0.32 1.664V763.072C928 818.72 883.552 864 828.928 864H195.04C140.448 864 96 818.72 96 763.072v-758.144C96-50.72 140.448-96 195.04-96h480.032a31.872 31.872 0 0 1 20.96 7.84l153.856 133.632a32 32 0 1 1-41.92 48.32L704 3.488v119.552c0 20.384 15.712 36.96 35.072 36.96h157.632a32 32 0 0 1 32 32c-0.032 1.792-0.768 3.36-1.024 5.088zM640 123.072V-32H195.04C175.712-32 160-15.424 160 4.928V763.072C160 783.424 175.712 800 195.04 800h633.888C848.288 800 864 783.424 864 763.072V224h-124.928C684.448 224 640 178.72 640 123.072zM496 144m-48 0a48 48 0 1 1 96 0 48 48 0 1 1-96 0ZM490.432 704a181.568 181.568 0 0 1-181.568-181.568 32 32 0 0 1 64 0 117.6 117.6 0 0 0 235.136 0c0-64.928-52.64-125.472-117.568-125.472a32 32 0 0 1-32-32v-62.816a32 32 0 0 1 64 0v33.632C607.456 350.912 672 433.088 672 522.432A181.568 181.568 0 0 1 490.432 704z"  horiz-adv-x="1024" />

    
    <glyph glyph-name="dingwei" unicode="&#60466;" d="M512 384m-80 0a80 80 0 1 1 160 0 80 80 0 1 1-160 0ZM960 416h-33.632C910.752 619.84 747.84 782.752 544 798.368V832a32 32 0 1 1-64 0v-33.632C276.16 782.752 113.248 619.84 97.632 416H64a32 32 0 0 1 0-64h33.632C113.248 148.16 276.16-14.752 480-30.368V-64a32 32 0 1 1 64 0v33.632C747.84-14.752 910.752 148.16 926.368 352H960a32 32 0 1 1 0 64zM544 33.632V96a32 32 0 1 1-64 0v-62.368C311.424 48.896 176.896 183.424 161.632 352H224a32 32 0 1 1 0 64H161.632C176.896 584.576 311.424 719.104 480 734.368V672a32 32 0 0 1 64 0V734.368c168.576-15.296 303.104-149.792 318.368-318.368H800a32 32 0 1 1 0-64h62.368c-15.264-168.576-149.792-303.104-318.368-318.368z"  horiz-adv-x="1024" />

    
    <glyph glyph-name="xiaoxitongzhi" unicode="&#60469;" d="M896 768H128a64 64 0 0 1-64-64v-672a64 64 0 0 1 64-64h768a64 64 0 0 1 64 64V704a64 64 0 0 1-64 64z m0-64v-117.664l-377.44-255.296L128 595.232V704h768zM128 32V517.952l372.64-252.032a31.968 31.968 0 0 1 35.84 0L896 509.088V32H128z"  horiz-adv-x="1024" />

    
    <glyph glyph-name="xinhao" unicode="&#60490;" d="M563.072 519.52a79.456 79.456 0 0 1 28.928 61.12 80 80 0 1 1-160 0c0-24.672 11.392-46.432 28.928-61.12l-202.88-540.256a32 32 0 1 1 59.904-22.496l49.28 131.264h289.504l49.28-131.264a32.064 32.064 0 0 1 41.248-18.752c16.544 6.208 24.896 24.672 18.72 41.216l-202.912 540.288z m-1.312-178.624h-99.552L512 473.44l49.76-132.544z m-170.464-188.896l46.912 124.896h147.616l46.912-124.896h-241.44zM662.464 478.592a32 32 0 1 1 53.12-35.648 254.72 254.72 0 0 1 43.136 142.304 255.04 255.04 0 0 1-43.136 142.304 32 32 0 1 1-53.12-35.68 190.944 190.944 0 0 0 32.288-106.624 190.816 190.816 0 0 0-32.288-106.656zM289.888 442.976a32 32 0 1 1 53.184 35.616 191.36 191.36 0 0 0-32.32 106.656 191.328 191.328 0 0 0 32.32 106.656 32.064 32.064 0 0 1-8.768 44.416 32.096 32.096 0 0 1-44.416-8.768 254.976 254.976 0 0 1-43.136-142.304 254.976 254.976 0 0 1 43.136-142.272zM210.656 778.88A32 32 0 1 1 157.44 814.464a420.032 420.032 0 0 1-70.848-233.824 419.744 419.744 0 0 1 70.88-233.856 31.936 31.936 0 0 1 44.416-8.768 32 32 0 0 1 8.768 44.416 355.168 355.168 0 0 0-60.032 198.24A355.36 355.36 0 0 0 210.656 778.88zM896.224 741.696a416.96 416.96 0 0 1-38.912 72.768 32 32 0 1 1-53.184-35.584 354.912 354.912 0 0 0 60.064-198.24 355.2 355.2 0 0 0-60.064-198.208 32.032 32.032 0 0 1 53.184-35.648 418.816 418.816 0 0 1 70.88 233.856c0 55.68-10.752 109.856-31.968 161.056z"  horiz-adv-x="1024" />

    
    <glyph glyph-name="lanya" unicode="&#60491;" d="M404.384 385.664l194.656 207.52a32 32 0 0 1-2.752 46.4l-220.224 184.896A32.032 32.032 0 0 1 323.456 800v-334.048L150.208 637.824a31.968 31.968 0 1 1-45.056-45.44l209.984-208.32-210.784-224.704a32.032 32.032 0 0 1 46.688-43.808l172.416 183.84v-360.896a32.064 32.064 0 0 1 32-32 31.936 31.936 0 0 1 23.232 9.984l220.224 232.192a32 32 0 0 1-0.672 44.736l-193.856 192.256z m-16.928 345.664l141.76-119.008-141.76-151.168V731.328z m0-712.608V312.32l143.488-142.336-143.488-151.264zM694.848 554.208a32 32 0 0 1-53.184-35.648 204.8 204.8 0 0 0 34.656-114.432 204.672 204.672 0 0 0-34.624-114.4 31.968 31.968 0 1 1 53.12-35.648 268.512 268.512 0 0 1 45.504 150.048 268.8 268.8 0 0 1-45.472 150.08zM886.528 569.568a441.536 441.536 0 0 1-41.152 77.024 32 32 0 1 1-53.184-35.616 379.648 379.648 0 0 0 64.16-211.744 380.512 380.512 0 0 0-64.16-211.744 32.032 32.032 0 0 1 53.184-35.648 443.328 443.328 0 0 1 74.976 247.36c0 58.88-11.392 116.192-33.824 170.368z"  horiz-adv-x="1024" />

    
    <glyph glyph-name="Wi-Fi" unicode="&#60492;" d="M512 96m-96 0a96 96 0 1 1 192 0 96 96 0 1 1-192 0ZM748.096 394.56a324.608 324.608 0 0 1-230.272 95.36c-87.52 0-169.6-34.72-230.272-95.36a326.72 326.72 0 0 1-42.464-52.256 32 32 0 1 1 53.568-35.008 263.616 263.616 0 0 0 34.144 41.984 260.704 260.704 0 0 0 185.024 76.64c70.368 0 136.224-27.872 184.992-76.64 12.8-12.8 24.256-26.88 34.144-42.016a32 32 0 0 1 53.568 35.008 325.024 325.024 0 0 1-42.432 52.288zM991.776 511.424a569.824 569.824 0 0 1-73.792 90.816C812.544 707.68 669.92 768 517.824 768S223.072 707.68 117.664 602.24a568.416 568.416 0 0 1-73.792-90.816 32 32 0 0 1 53.568-35.008 505.76 505.76 0 0 0 65.472 80.608C256.448 650.528 382.88 704 517.824 704s261.344-53.472 354.912-147.008a502.944 502.944 0 0 0 65.472-80.608 32 32 0 1 1 53.568 35.04z"  horiz-adv-x="1024" />

    
    <glyph glyph-name="chaxun" unicode="&#60493;" d="M896 832H128c-35.296 0-64-28.704-64-64v-768c0-35.296 28.704-64 64-64h592a32 32 0 1 1 0 64H128V768h768v-592a32 32 0 1 1 64 0V768c0 35.296-28.704 64-64 64zM791.744 149.50400000000002A206.752 206.752 0 0 1 832 272c0 114.688-93.312 208-208 208S416 386.688 416 272s93.312-208 208-208a206.752 206.752 0 0 1 122.496 40.256l110.88-110.88a31.904 31.904 0 0 1 45.248 0 31.968 31.968 0 0 1 0 45.248l-110.88 110.88zM480 272c0 79.392 64.608 144 144 144s144-64.608 144-144-64.608-144-144-144-144 64.608-144 144zM800 632a32 32 0 0 1-32 32H256a32 32 0 0 1 0-64h512a32 32 0 0 1 32 32zM256 473.344a32 32 0 0 1 0-64h96a32 32 0 0 1 0 64H256z"  horiz-adv-x="1024" />

    
    <glyph glyph-name="anquan" unicode="&#60494;" d="M867.584 735.808c-149.632 16.928-262.208 57.408-334.592 120.352l-19.04 16.544-20.544-14.656C379.968 777.056 267.776 736 160 736H128v-448c0-137.344 121.088-261.92 370.208-380.864l13.088-6.24 13.344 5.728C771.072 12.48 896 140.768 896 288V732.576l-28.416 3.232zM832 288c0-116.8-107.392-223.36-319.328-316.8C299.872 74.976 192 181.536 192 288V673.024c104.672 6.784 211.584 46.688 318.496 118.944C587.232 733.472 695.168 694.464 832 675.744V288zM359.776 427.328a32 32 0 1 1-47.968-42.4l121.792-137.824c12.608-14.24 30.176-21.568 47.904-21.568a64.384 64.384 0 0 1 49.696 23.52l197.6 242.72a32 32 0 0 1-49.632 40.416l-197.6-242.688-121.792 137.824z"  horiz-adv-x="1024" />

    
    <glyph glyph-name="hanshu" unicode="&#60502;" d="M142.88 690.56c-12.96 0-24.128-4.672-33.44-13.984-9.344-9.344-14.016-20.48-14.016-33.44s4.672-24.128 14.016-33.472c9.312-9.344 20.48-13.984 33.44-13.984 12.96 0 24.128 4.672 33.44 14.016 9.344 9.344 14.016 20.48 14.016 33.44s-4.672 24.096-14.016 33.44a45.504 45.504 0 0 1-33.44 13.984zM142.88 529.248c-10.432 0-19.36-3.712-26.816-11.136a36.576 36.576 0 0 1-11.136-26.816v-455.52c0-10.432 3.712-19.36 11.136-26.816 7.424-7.424 16.352-11.136 26.816-11.136s19.36 3.712 26.816 11.136c7.424 7.424 11.136 16.352 11.136 26.816V491.296c0 10.432-3.712 19.36-11.136 26.816a36.544 36.544 0 0 1-26.816 11.136zM547.168 756.992c-151.84 0-227.744-75.936-227.744-227.744v-28.48H281.44c-10.432 0-19.36-3.712-26.816-11.136-7.424-7.424-11.136-16.384-11.136-26.816s3.712-19.36 11.136-26.816c7.424-7.424 16.384-11.136 26.816-11.136h37.952v-389.088c0-10.432 3.712-19.36 11.168-26.816 7.424-7.424 16.352-11.136 26.816-11.136 10.432 0 19.36 3.712 26.816 11.136 7.424 7.424 11.136 16.352 11.136 26.816V424.864h114.368c10.432 0 19.36 3.712 26.816 11.136 7.424 7.424 11.136 16.384 11.136 26.816s-3.712 19.36-11.136 26.816a36.544 36.544 0 0 1-26.816 11.136h-114.368v28.48c0 101.216 50.624 151.84 151.84 151.84 10.432 0 19.36 3.712 26.816 11.168 7.424 7.424 11.136 16.352 11.136 26.816s-3.712 19.36-11.136 26.816a36.736 36.736 0 0 1-26.816 11.104zM921.952 310.65599999999995a279.968 279.968 0 0 1-24.032 66.208c-6.4 12.448-13.376 24.704-20.928 36.768s-15.456 23.936-23.776 35.648c-4.512 8.672-10.56 14.528-18.112 17.536-7.552 3.008-14.912 3.68-22.08 1.984s-13.28-5.76-18.4-12.16c-5.088-6.4-7.456-14.528-7.072-24.32 0.384-6.4 2.176-11.968 5.376-16.672l9.888-14.432c7.552-11.328 15.008-22.816 22.336-34.528 7.36-11.68 13.472-24.128 18.4-37.344 7.168-19.232 12.256-40.448 15.264-63.648 3.008-23.2 3.968-46.752 2.816-70.72-1.12-23.968-4.512-47.232-10.176-69.856s-13.952-42.816-24.896-60.544c-2.656-4.16-5.088-7.712-7.36-10.752a74.88 74.88 0 0 0-7.072-8.192l-15.552-15.552-7.904-8.48a56.64 56.64 0 0 1-5.664-18.4c-0.768-6.208-0.096-11.968 1.984-17.248 2.08-5.28 5.664-9.632 10.752-13.024s11.584-5.088 19.52-5.088c8.672 0 16.608 2.656 23.776 7.936 7.168 5.28 13.568 10.944 19.232 16.992 13.184 13.952 24.032 30.08 32.544 48.352 8.48 18.304 15.744 36.48 21.792 54.592 6.784 21.12 11.872 43.84 15.264 68.16 3.392 24.32 4.608 48.928 3.68 73.824a388.608 388.608 0 0 1-9.6 72.96zM722.88 34.81600000000003a23.04 23.04 0 0 1-1.504 1.728l-5.952 6.784a511.296 511.296 0 0 0-8.192 9.632 67.712 67.712 0 0 0-7.36 10.464 224.48 224.48 0 0 0-24.896 59.68 325.856 325.856 0 0 0-10.176 66.464c-1.12 22.624-0.384 45.184 2.272 67.616a394.432 394.432 0 0 0 15.264 72.416c1.12 3.2 2.72 6.88 4.8 11.04a961.664 961.664 0 0 0 20.064 37.312c3.392 5.28 7.84 11.68 13.28 19.232 5.472 7.552 9.984 15.36 13.568 23.488 3.584 8.096 4.992 16.032 4.256 23.776-0.736 7.712-5.664 14.432-14.72 20.064-9.44 5.664-18.208 6.976-26.304 3.968s-15.552-8.096-22.336-15.264a122.432 122.432 0 0 1-17.824-24.32l-12.736-22.624c-5.664-10.56-11.328-21.024-16.96-31.392a164.448 164.448 0 0 1-13.568-33.088c-13.952-45.632-20.192-92.512-18.656-140.576s11.872-94.368 31.104-138.88c3.008-7.552 7.552-17.344 13.568-29.408s13.216-23.584 21.504-34.496 17.632-19.616 28-26.016c10.368-6.4 21.216-7.552 32.544-3.392 12.064 4.896 18.848 12.544 20.352 22.912a50.144 50.144 0 0 1-5.664 30.848l-13.728 12.032z"  horiz-adv-x="1024" />

    
    <glyph glyph-name="chucun" unicode="&#60510;" d="M512 832C357.472 832 96 805.056 96 704v-634.528c0-101.024 261.472-128 416-128 154.496 0 416 26.976 416 128V704c0 101.056-261.504 128-416 128zM160 438.272C247.328 396.928 405.184 384 512 384c106.88 0 264.864 12.96 352.16 54.368l0.096-148.256C852.352 266.27200000000005 725.056 224 512 224c-212.096 0-339.136 41.888-352 65.76v148.512zM512 448c-212.096 0-339.136 41.888-352 65.76v116.48C247.328 588.928 405.184 576 512 576c106.848 0 264.736 12.928 352.032 54.304l0.064-116.384C851.648 490.048 724.512 448 512 448z m0 320c206.88 0 332.96-39.872 351.008-64-18.048-24.128-144.128-64-351.008-64S179.04 679.8720000000001 161.024 704C179.04 728.1279999999999 305.12 768 512 768z m0-762.528c-213.568 0-341.056 42.496-352 64v144.8C247.328 172.928 405.184 160 512 160c106.944 0 265.056 12.992 352.32 54.432l0.096-142.688c-11.392-23.776-138.848-66.272-352.416-66.272z"  horiz-adv-x="1024" />

    
    <glyph glyph-name="bug" unicode="&#60515;" d="M928 357.34400000000005h-128v177.344l86.08 82.176a32 32 0 1 1-44.192 46.304L750.624 576H273.376L182.08 663.136a31.968 31.968 0 1 1-44.16-46.272L224 534.656v-177.344H96a32 32 0 0 1 0-64h128V256c0-52.96 14.304-102.592 39.232-145.216L137.92-8.864000000000033a32 32 0 1 1 44.192-46.304l119.712 114.272a287.104 287.104 0 0 1 178.208-89.344V352a32 32 0 0 0 64 0v-382.24a287.424 287.424 0 0 1 178.208 89.344l119.712-114.272a32.032 32.032 0 0 1 44.192 46.304l-125.344 119.648A287.04 287.04 0 0 1 800 256v37.344h128a32 32 0 0 1 0 64zM672 656a160 160 0 0 1-320 0v-21.344h320V656z"  horiz-adv-x="1024" />

    
    <glyph glyph-name="js" unicode="&#60520;" d="M707.072 247.552c-15.36-8.704-36.864-13.312-63.488-13.312-30.208 0-52.224 5.632-66.56 15.872-15.872 11.776-25.6 31.744-29.696 59.392h-59.392c2.56-46.592 19.456-80.384 50.176-101.888 25.088-17.408 60.416-26.112 105.472-26.112 46.592 0 82.944 9.728 108.544 28.16 25.6 18.944 38.4 45.056 38.4 77.824 0 33.792-15.872 59.904-47.616 78.848-14.336 8.192-46.08 20.48-95.744 35.84-33.792 10.752-54.784 18.432-62.464 22.528-17.408 9.216-25.6 22.016-25.6 37.376 0 17.408 7.168 30.208 22.528 37.888 12.288 6.656 29.696 9.728 52.736 9.728 26.624 0 47.104-4.608 60.416-14.848 13.312-9.728 23.04-26.112 28.16-48.64h59.392c-3.584 39.936-18.432 69.632-44.032 88.576-24.064 17.92-57.856 26.624-100.864 26.624-39.424 0-71.68-8.704-97.28-26.624-27.648-18.432-40.96-44.032-40.96-76.288s13.824-56.832 41.984-73.728c10.752-6.144 38.912-16.384 83.968-30.72 40.448-12.288 64-20.48 71.168-24.064 22.528-11.264 34.304-26.624 34.304-46.08 0-15.36-8.192-27.136-23.552-36.352zM884.864 672.16L557.984 861.44a101.088 101.088 0 0 1-101.056 0L130.24 672.128A101.12 101.12 0 0 1 80 584.928v-401.312c0-36.384 19.712-70.016 51.424-87.872l117.792-66.176c1.28-0.704 2.688-0.768 4.032-1.312 15.648-7.616 34.272-11.52 57.472-11.52 42.496 0 75.36 15.52 94.816 37.024 17.408 20.48 26.112 51.2 26.112 93.184V554.24h-59.904v-405.248c0-26.112-4.608-45.056-13.824-56.832-9.216-11.776-24.064-17.92-44.032-17.92-2.688 0-18.656 4.096-31.2 9.408l-0.16 0.032c-0.736 0.48-1.184 1.248-1.952 1.664l-117.76 66.176a36.96 36.96 0 0 0-18.816 32.128V584.928c0 13.088 7.04 25.28 18.336 31.84l326.656 189.28a36.8 36.8 0 0 0 36.896 0l326.88-189.28c11.328-6.592 18.368-18.784 18.368-31.872V182.4c0-12.864-6.88-24.96-17.92-31.552l-315.744-188.672a36.8 36.8 0 0 0-36.896-0.512l-67.168 37.76a32 32 0 1 1-31.392-55.808l67.2-37.76a100.832 100.832 0 0 1 101.056 1.376l315.744 188.672a101.216 101.216 0 0 1 49.088 86.496V584.928a100.992 100.992 0 0 1-50.24 87.232z"  horiz-adv-x="1024" />

    
    <glyph glyph-name="wuxiandianbo" unicode="&#60537;" d="M480 480a32 32 0 0 0 64 0v-528a32 32 0 0 0-64 0V480z m-104.8 185.856a32 32 0 0 0 45.248-45.248A152.992 152.992 0 0 1 375.456 512c0-41.312 16.352-80 44.992-108.608a32 32 0 0 0-45.248-45.248A216.96 216.96 0 0 0 311.456 512a216.96 216.96 0 0 0 63.744 153.856zM287.712 753.344a32 32 0 0 0 45.248-45.248A276.32 276.32 0 0 1 251.744 512c0-74.56 29.536-144.416 81.216-196.096a32 32 0 1 0-45.248-45.248A340.288 340.288 0 0 0 187.744 512c0 91.744 36.384 177.792 99.968 241.344zM200.224 840.864A32 32 0 0 0 245.44 795.5840000000001 399.648 399.648 0 0 1 128 512c0-107.84 42.72-208.832 117.44-283.584a32 32 0 0 0-45.216-45.28A463.616 463.616 0 0 0 64 512C64 636.992 113.6 754.24 200.224 840.864z m448.576-175.008A216.96 216.96 0 0 0 712.544 512a216.96 216.96 0 0 0-63.744-153.856 32 32 0 0 0-45.248 45.248A152.992 152.992 0 0 1 648.544 512c0 41.312-16.352 80-44.992 108.608a32 32 0 1 0 45.248 45.248z m87.488 87.488A340.288 340.288 0 0 0 836.256 512c0-91.744-36.384-177.792-99.968-241.344a32 32 0 0 0-45.248 45.248A276.32 276.32 0 0 1 772.256 512c0 74.56-29.536 144.416-81.216 196.096a32 32 0 1 0 45.248 45.248z m87.488 87.52A463.616 463.616 0 0 0 960 512c0-124.992-49.6-242.24-136.224-328.864a32 32 0 0 0-45.248 45.28A399.648 399.648 0 0 1 896 512c0 107.84-42.72 208.832-117.44 283.584a32 32 0 0 0 45.216 45.28zM512 512m-64 0a64 64 0 1 1 128 0 64 64 0 1 1-128 0Z"  horiz-adv-x="1024" />

    
    <glyph glyph-name="dianzan_kuai" unicode="&#60556;" d="M64 412.96V24c0-37.216 30.144-67.36 67.36-67.36H192V479.68l-60.64 0.64A67.36 67.36 0 0 1 64 412.96zM857.28 551.008l-267.808-1.696c12.576 44.256 18.944 83.584 18.944 118.208 0 78.56-68.832 155.488-137.568 145.504-60.608-8.8-67.264-61.184-67.264-126.816v-59.264c0-76.064-63.84-140.864-137.856-148L256 479.04v-522.4h527.552a102.72 102.72 0 0 1 100.928 83.584l73.728 388.96a102.72 102.72 0 0 1-100.928 121.824z"  horiz-adv-x="1024" />

    
    <glyph glyph-name="zhihuan" unicode="&#60557;" d="M859.04 544H95.936a32 32 0 1 1 0-64h832a32 32 0 0 1 24.448 52.64l-189.088 224a32 32 0 0 1-48.896-41.28L859.04 544zM164.896 256H928a32 32 0 1 1 0 64H96a32 32 0 0 1-24.448-52.64l189.088-224a32 32 0 0 1 48.896 41.28L164.896 256z"  horiz-adv-x="1024" />

    
    <glyph glyph-name="aixin_shixin" unicode="&#60577;" d="M32 488.416a279.584 279.584 0 0 0 480 194.944 279.584 279.584 0 0 0 480-194.944 278.144 278.144 0 0 0-113.024-224.512L562.592 3.2a96 96 0 0 0-124.416 1.952l-308.16 270.688A278.976 278.976 0 0 0 32 488.416z"  horiz-adv-x="1024" />

    
    <glyph glyph-name="aixin" unicode="&#60578;" d="M171.712 324.352l0.352-0.32 287.904-252.8a64 64 0 0 1 82.912-1.344l296.832 244.544a215.584 215.584 0 1 1-301.824 300.576L512 579.328l-25.888 35.616a215.584 215.584 0 1 1-314.4-290.624zM32 488.416a279.584 279.584 0 0 0 480 194.944 279.584 279.584 0 0 0 480-194.944 278.144 278.144 0 0 0-113.024-224.512l-295.36-243.392a128 128 0 0 0-165.888 2.592L129.984 275.84A278.976 278.976 0 0 0 32 488.416z"  horiz-adv-x="1024" />

    
    <glyph glyph-name="shengyin_shiti" unicode="&#60581;" d="M260.256 539.424l204.288 163.968a32 32 0 0 0 52.032-24.96v-610.432a32 32 0 0 0-51.968-24.992l-209.92 167.552H96a32 32 0 0 0-32 32v264.864a32 32 0 0 0 32 32h164.256zM670.784 175.872a32 32 0 0 0-44.832 45.664 214.08 214.08 0 0 1 64.32 153.312 213.92 213.92 0 0 1-55.776 144.448 32 32 0 1 0 47.36 43.04 277.92 277.92 0 0 0 72.416-187.488 278.08 278.08 0 0 0-83.488-198.976zM822.912 37.12a32 32 0 1 0-45.888 44.608A419.008 419.008 0 0 1 896 374.848c0 108.704-41.376 210.848-114.432 288.384a32 32 0 0 0 46.592 43.872c84.16-89.28 131.84-207.04 131.84-332.256 0-127.84-49.76-247.904-137.088-337.728z"  horiz-adv-x="1024" />

    
    <glyph glyph-name="shengyinkai" unicode="&#60582;" d="M128 475.424v-200.864h149.12l175.456-140.064V611.712l-169.792-136.288H128z m132.256 64l204.288 163.968a32 32 0 0 0 52.032-24.96v-610.432a32 32 0 0 0-51.968-24.992l-209.92 167.552H96a32 32 0 0 0-32 32v264.864a32 32 0 0 0 32 32h164.256zM670.784 175.872a32 32 0 0 0-44.832 45.664 214.08 214.08 0 0 1 64.32 153.312 213.92 213.92 0 0 1-55.776 144.448 32 32 0 1 0 47.36 43.04 277.92 277.92 0 0 0 72.416-187.488 278.08 278.08 0 0 0-83.488-198.976zM822.912 37.12a32 32 0 1 0-45.888 44.608A419.008 419.008 0 0 1 896 374.848c0 108.704-41.376 210.848-114.432 288.384a32 32 0 0 0 46.592 43.872c84.16-89.28 131.84-207.04 131.84-332.256 0-127.84-49.76-247.904-137.088-337.728z"  horiz-adv-x="1024" />

    
    <glyph glyph-name="shoucang_shixin" unicode="&#60583;" d="M512 135.776L298.944-22.08c-22.08-16.32-53.536-12.16-70.272 9.376a47.904 47.904 0 0 0-8 43.968l82.144 259.936-219.136 163.328a48.096 48.096 0 0 0-9.376 68.544c9.472 12.096 24.192 19.2 39.776 19.2l268.64 0.448 81.408 254.88c8.224 25.792 36.32 40.16 62.784 32.16 15.744-4.8 28.064-16.8 32.96-32.16l81.408-254.88 268.64-0.448c27.712-0.032 50.112-21.952 50.08-48.96 0-15.2-7.296-29.536-19.68-38.784l-219.136-163.328 82.144-259.936c8.16-25.792-6.688-53.184-33.152-61.12a51.2 51.2 0 0 0-45.12 7.776L512 135.776z"  horiz-adv-x="1024" />

    
    <glyph glyph-name="shoucang" unicode="&#60584;" d="M512 175.584l232.096-171.904a19.2 19.2 0 0 1 16.864-2.88c9.536 2.88 14.592 12.224 11.84 20.864l-88.96 281.6 237.344 176.96a16.48 16.48 0 0 1 6.816 13.152c0 9.152-7.904 16.928-18.112 16.96l-292 0.448-88.48 277.12a17.568 17.568 0 0 1-11.776 11.264c-9.856 2.976-20.16-2.304-23.04-11.264l-88.48-277.12-292-0.48a18.624 18.624 0 0 1-14.624-6.944 16.096 16.096 0 0 1 3.328-23.136l237.376-176.96-88.992-281.6a15.904 15.904 0 0 1 2.72-14.688c6.048-7.744 17.856-9.312 25.984-3.296L512 175.584z m-194.016-223.36a83.008 83.008 0 0 0-114.56 15.424 79.904 79.904 0 0 0-13.28 73.28l75.296 238.24-200.864 149.76a80.096 80.096 0 0 0-15.424 113.92 82.624 82.624 0 0 0 64.864 31.456l245.312 0.384 74.304 232.672c13.6 42.56 59.52 66.112 102.56 53.024A81.536 81.536 0 0 0 590.4 807.36l74.304-232.64 245.312-0.416c45.184-0.064 82.08-36.16 82.016-81.024a80.48 80.48 0 0 0-32.576-64.352l-200.864-149.76 75.296-238.24c13.568-42.976-11.072-88.352-54.496-101.408a83.2 83.2 0 0 0-73.344 12.736L512 95.936l-194.016-143.68z"  horiz-adv-x="1024" />

    
    <glyph glyph-name="shengyinwu" unicode="&#60585;" d="M128 475.424v-200.864h149.12l175.456-140.064V611.712l-169.792-136.288H128z m132.256 64l204.288 163.968a32 32 0 0 0 52.032-24.96v-610.432a32 32 0 0 0-51.968-24.992l-209.92 167.552H96a32 32 0 0 0-32 32v264.864a32 32 0 0 0 32 32h164.256z"  horiz-adv-x="1024" />

    
    <glyph glyph-name="shengyinjingyin" unicode="&#60586;" d="M128 475.424v-200.864h149.12l175.456-140.064V611.712l-169.792-136.288H128z m132.256 64l204.288 163.968a32 32 0 0 0 52.032-24.96v-610.432a32 32 0 0 0-51.968-24.992l-209.92 167.552H96a32 32 0 0 0-32 32v264.864a32 32 0 0 0 32 32h164.256zM752 437.344L870.4 595.2a32 32 0 1 0 51.2-38.4L792 384l129.6-172.8a32 32 0 0 0-51.2-38.4l-118.4 157.856-118.4-157.856a32 32 0 0 0-51.2 38.4l129.6 172.8-129.6 172.8a32 32 0 0 0 51.2 38.4l118.4-157.856z"  horiz-adv-x="1024" />

    
    <glyph glyph-name="fenxiangfangshi" unicode="&#60718;" d="M397.184 253.888a192 192 0 1 0-10.144 270.464L554.592 633.6a144 144 0 1 0 36.8-52.416l-165.44-107.84c14.08-26.72 22.016-57.12 22.016-89.376a191.36 191.36 0 0 0-15.808-76.384l241.056-135.584a144 144 0 1 0-28.992-57.12l-247.072 138.976z"  horiz-adv-x="1024" />

    


  </font>
</defs>
</svg>
